你知道吗? 手机也可以访问初音社哦!~ | 点击顶部个人头像可以修改个人头像,密码,邮件等信息哦~

【演唱会】【已更新】【8bit】初音未来2015 Magical Mirai 魔法未来演唱会 日本武道馆 1080P

演唱会 1169 点击 15 评论 24 总评分

【演唱会】【已更新】【8bit】初音未来2015 Magical Mirai 魔法未来演唱会 日本武道馆 1080P

描述

 

81IhjcII7ML._SL1200_

   由于社长上传的都是10bit的,8bit版本的码率有很低,电脑播放都很占资源,手机更放不出来,硬解根本不了,软解卡成XIANG。没办法,只有自己转码,[email protected] HEVC 10bit 内嵌特效高压版,无赖电脑渣,怎么转都不行,转得速度快,那视频就像全屏马赛克一样,质量好一点得话,转码时间又非常长,要20几个小时,估计电脑要爆炸了。于是换一个途径,云端转码,但是费用又很贵,花了不少银子,终于转完了,可用手机播放,如果大家喜欢,就请打赏一下,谢谢。

【种子链接】

注:请用迅雷会员下载,因为文件保存在迅雷的离线服务器上,只有会员才能够下载。

[Vmoe]Hatsune Miku「Magical Mirai 2015」in BUDOKAN[BDrip][1920x1080p][8bit][AVC_YUV420_60fps_2Audio_DTS-HD 5.1ch&PCM 2.0ch_Chapter][Effect Subtitles].torrent
http://bbs.3dmgame.com/thread-5284629-1-1.html
(出处: 3DMGAME论坛)

【文件信息】

General
Unique ID : 227695551648998393762543989940000803974 (0xAB4C916FD16A0AC38FA8028D886A4C86)
Complete name : E:迅雷下载[Vmoe]Hatsune Miku「Magical Mirai 2015」[1080p][8bit][AVC_YUV420_60fps_2Audio_DTS-HD 5.1ch&PCM 2.0ch_Chapter][Effect Subtitles].mkv
Format : Matroska
Format version : Version 4 / Version 2
File size : 13.9 GiB
Duration : 2 h 8 min
Overall bit rate : 15.5 Mb/s
Encoded date : UTC 2016-09-16 12:38:36
Writing application : mkvmerge v9.4.0 (‘Knurl’) 64bit
Writing library : libebml v1.3.4 + libmatroska v1.4.5

Video
ID : 1
Format : AVC
Format/Info : Advanced Video Codec
Format profile : [email protected]
Format settings, CABAC : Yes
Format settings, ReFrames : 4 frames
Codec ID : V_MPEG4/ISO/AVC
Duration : 2 h 8 min
Bit rate : 7 930 kb/s
Width : 1 920 pixels
Height : 1 080 pixels
Display aspect ratio : 16:9
Frame rate mode : Constant
Frame rate : 60.000 FPS
Color space : YUV
Chroma subsampling : 4:2:0
Bit depth : 8 bits
Scan type : Progressive
Bits/(Pixel*Frame) : 0.064
Stream size : 7.13 GiB (51%)
Default : Yes
Forced : No

Audio #1
ID : 2
Format : DTS
Format/Info : Digital Theater Systems
Format profile : MA / Core
Mode : 16
Format settings, Endianness : Big
Codec ID : A_DTS
Duration : 2 h 8 min
Bit rate mode : Variable / Constant
Bit rate : 5 242 kb/s / 1 509 kb/s
Channel(s) : 6 channels
Channel positions : Front: L C R, Side: L R, LFE
Sampling rate : 48.0 kHz
Frame rate : 93.750 FPS (512 spf)
Bit depth : 24 bits
Compression mode : Lossless / Lossy
Stream size : 4.71 GiB (34%)
Title : 5.1ch DTS-HD
Language : Japanese
Default : Yes
Forced : No

Audio #2
ID : 3
Format : PCM
Codec ID : A_PCM/INT/LIT
Duration : 2 h 8 min
Bit rate mode : Constant
Bit rate : 2 304 kb/s
Channel(s) : 2 channels
Sampling rate : 48.0 kHz
Frame rate : 32.000 FPS (1500 spf)
Bit depth : 24 bits
Stream size : 2.07 GiB (15%)
Title : 2.0ch PCM
Language : Japanese
Default : No
Forced : No

Menu
00:00:00.000 : ja:BUDOKAN
00:00:13.013 : ja:Opening
00:02:13.133 : ja:01.Tell Your World / livetune
00:06:30.390 : ja:02.ラズベリー*モンスター / HoneyWorks
00:09:27.567 : ja:03.はじめまして地球人さん / ピノキオピー
00:13:24.103 : ja:MC1
00:14:08.848 : ja:04.独りんぼエンヴィー / koyori(電ポルP)
00:17:33.719 : ja:05.恋愛裁判 / 40mP
00:21:18.010 : ja:06.聖槍爆裂ボーイ / れるりり
00:25:02.468 : ja:07.ロストワンの号哭 / Neru
00:28:41.053 : ja:08.リモコン / じーざす (ワンダフル☆オポチュニティ! )
00:33:55.033 : ja:09.Nostalogic / yuukiss
00:38:18.630 : ja:10.スノーマン / halyosy
00:42:08.593 : ja:11.エンヴィキャットウォーク / トーマ
00:46:07.264 : ja:12.深海少女 / ゆうゆ
00:50:09.006 : ja:13.Sweet Devil / 八王子P
00:54:34.471 : ja:14.二次元ドリームフィーバー / PolyphonicBranch
00:57:52.569 : ja:15.キャットフード / doriko
01:02:58.775 : ja:16.アンハッピーリフレイン / wowaka
01:06:47.003 : ja:17.ロミオとシンデレラ / doriko
01:10:41.637 : ja:18 glow / keeno
01:15:24.987 : ja:19.愛Dee / Mitchie M
01:20:22.151 : ja:20.Just Be Friends / Dixie Flatline
01:25:20.115 : ja:Band Member Introduction
01:27:14.563 : ja:21.shake it! / emon
01:31:10.465 : ja:22.Packaged / livetune
01:36:11.766 : ja:23.ワールドイズマイン / ryo(supercell)
01:40:29.257 : ja:24.ODDS&ENDS / ryo(supercell)
01:47:16.964 : ja:ENCORE
01:48:20.327 : ja:25.Hand in Hand / livetune
01:53:41.815 : ja:26.39 / sasakure.UK×DECO*27
01:58:08.381 : ja:MC2
01:58:59.466 : ja:27.ハジメテノオト / malo
02:05:53.780 : ja:Ending

在线播放【支持手机端】

3571216

点击播放B站地址

下载

访问密码1: uf62 访问密码2: 7df4

百度云360云盘

总评分 【24】 平均评分 【4.80】 评价人数 【5

5 votes, average: 4.80 out of 55 votes, average: 4.80 out of 55 votes, average: 4.80 out of 55 votes, average: 4.80 out of 55 votes, average: 4.80 out of 5
Loading...

打赏积分给作者


失效了? or 是禁转? 请通知 or分享 (0)

您必须 登录 才能发表评论!

15 条精彩评论。
  1. 只有我觉得声音在画面之前,音画不同步吗?
    2016-12-11 13:49 Google Chrome 51.0.2704.79Windows 10 x64
  2. 能看8bit真开心!
    2016-12-03 20:45 Google Chrome 49.0.2623.22Windows 7 x64
  3. [Vmoe]Hatsune Miku「Magical Mirai 2015」in BUDOUKAN[BDrip][1920x1080p][8bit][AVC_YUV420_60fps_2AAC_5.1ch&2.0ch_Chapter][Effect Subtitles].mkv: CRC校验错误,文件被破坏 (〜 ̄△ ̄)〜是不是RP问题~大家下载的有没有问题?2014的我好不容易下载完了解压时也遇到同样问题
    2016-11-15 15:40 Google Chrome 54.0.2840.87Windows 7 x64
  4. 感谢分享 就是迅雷会员都有点下
    2016-11-06 22:48 Google Chrome 50.0.2661.102Windows 10 x64
  5. 解压密码:upload by [email protected]@[email protected]
    2016-10-04 23:04 Google Chrome 45.0.2454.101Windows 7 x64
  6. 感谢分享 就是迅雷会员都有点下不动了。。
    2016-09-20 18:54 Google Chrome 45.0.2454.101Windows 7 x64
  7. 感谢分享
    2016-09-10 00:03 Safari 534.30Android 6.0.1
  8. 感觉带劲,感谢分享
    2016-09-06 19:09 Google Chrome 45.0.2454.101Windows 7 x64
  9. 什么什么,这三场之前初音社不是有了吗?? 还是说这个和之前的不一样? (゚Д゚≡゚д゚)!?
    2016-09-06 16:49 Google Chrome 31.0.1650.63Windows 7 x64
  10. Horp
    感谢分享
    2016-09-05 03:23 Google Chrome 51.0.2704.106Windows 10 x64
  11. 听说要来北京开演唱会了
    2016-09-05 02:17 Google Chrome 18.0.966.0Windows 7 x64
  12. 谢谢啦^_^,不过请问我应该下载哪一个文件?那个压缩包吗?
    2016-09-05 00:17 Google Chrome 37.0.0.0Android 5.1.1
  13. 好听.....
    2016-09-04 19:39 Google Chrome 46.0.2486.0Windows 10 x64
  14. Ajept
    捧个人场 :eek:
    2016-09-04 18:46 Google Chrome 32.0.1653.0Windows 7 x64