你知道吗? 手机也可以访问初音社哦!~ | 点击顶部个人头像可以修改个人头像,密码,邮件等信息哦~

【演唱会】【已更新】【8bit】初音未来 Magical Mirai 2013 魔法未来横滨演唱会 1080P

演唱会 866 点击 4 评论 20 总评分

【演唱会】【已更新】【8bit】初音未来 Magical Mirai 2013 魔法未来横滨演唱会 1080P

描述

2013-2

由于社长上传的都是10bit的,8bit版本的码率有很低,电脑播放都很占资源,手机更放不出来,硬解根本不了,软解卡成XIANG。没办法,只有自己转码,[email protected] AVC 10bit 内嵌特效字幕版,无赖电脑渣,怎么转都不行,转得速度快,那视频就像全屏马赛克一样,质量好一点得话,转码时间又非常长,要20几个小时,估计电脑要爆炸了。于是换一个途径,云端转码,但是费用又很贵,花了不少银子,终于转完了,可用手机播放,如果大家喜欢,就请打赏一下,谢谢。

【种子链接】

注:请用迅雷会员下载,因为文件保存在迅雷的离线服务器上,只有会员才能够下载。

[Vmoe]Hatsune Miku「Magical Mirai 2013」in YOKOHAMA[BDrip][1920x1080p][8bit][AVC_YUV420_60fps_2Audio_DTS-HD 5.1ch&FLAC 2.0ch_Chapter][Effect Subtitles].torrent

http://bbs.3dmgame.com/thread-5284629-1-1.html
(出处: 3DMGAME论坛)

【文件信息】

General
Unique ID : 172858270816848735067519087516132505672 (0x820B4ABFDD42158C9ADA6813CAF6F848)
Complete name : E:迅雷下载[Vmoe]Hatsune Miku「Magical Mirai 2013」[1080p][8bit][AVC_YUV420_60fps_2Audio_DTS-HD 5.1ch&PCM 2.0ch_Chapter][Effect Subtitles].mkv
Format : Matroska
Format version : Version 4 / Version 2
File size : 17.0 GiB
Duration : 1 h 58 min
Overall bit rate : 20.5 Mb/s
Encoded date : UTC 2016-11-20 07:01:21
Writing application : mkvmerge v9.5.0 (‘Quiet Fire’) 64bit
Writing library : libebml v1.3.4 + libmatroska v1.4.5

Video
ID : 1
Format : AVC
Format/Info : Advanced Video Codec
Format profile : [email protected]
Format settings, CABAC : Yes
Format settings, ReFrames : 4 frames
Codec ID : V_MPEG4/ISO/AVC
Duration : 1 h 58 min
Bit rate : 12.9 Mb/s
Width : 1 920 pixels
Height : 1 080 pixels
Display aspect ratio : 16:9
Frame rate mode : Constant
Frame rate : 60.000 FPS
Color space : YUV
Chroma subsampling : 4:2:0
Bit depth : 8 bits
Scan type : Progressive
Bits/(Pixel*Frame) : 0.103
Stream size : 10.6 GiB (63%)
Language : Japanese
Default : Yes
Forced : No

Audio #1
ID : 2
Format : DTS
Format/Info : Digital Theater Systems
Format profile : MA / Core
Mode : 16
Format settings, Endianness : Big
Codec ID : A_DTS
Duration : 1 h 58 min
Bit rate mode : Variable / Constant
Bit rate : 5 372 kb/s / 1 509 kb/s
Channel(s) : 6 channels
Channel positions : Front: L C R, Side: L R, LFE
Sampling rate : 48.0 kHz
Frame rate : 93.750 FPS (512 spf)
Bit depth : 24 bits
Compression mode : Lossless / Lossy
Stream size : 4.44 GiB (26%)
Title : 5.1ch DTS-HD
Language : Japanese
Default : Yes
Forced : No

Audio #2
ID : 3
Format : PCM
Codec ID : A_PCM/INT/LIT
Duration : 1 h 58 min
Bit rate mode : Constant
Bit rate : 2 304 kb/s
Channel(s) : 2 channels
Sampling rate : 48.0 kHz
Frame rate : 32.000 FPS (1500 spf)
Bit depth : 24 bits
Stream size : 1.90 GiB (11%)
Language : Japanese
Default : No
Forced : No

Menu
00:00:00.000 : ja:初音ミク マジカルミライ2013「Magical Mirai 2013」
00:00:30.029 : ja:OPENING MUSIC
00:02:29.749 : ja:01.Sweet Devil / 八王子P
00:06:27.653 : ja:02.二次元ドリームフィーバー / PolyphonicBranch
00:09:58.664 : ja:03.キャットフード / doriko
00:15:16.148 : ja:MC
00:15:40.673 : ja:04.からくりピエロ / 40mP
00:19:05.477 : ja:05.ありふれたせかいせいふく / ピノキオP
00:22:39.358 : ja:06.どうぶつ占い / すこっぷ
00:27:28.980 : ja:07.深海少女 / ゆうゆ
00:31:36.895 : ja:08.Hello, Worker / KEI
00:35:35.066 : ja:09.erase or zero / クリスタルP
00:39:29.767 : ja:10.ピアノ×フォルテ×スキャンダル / OSTER project
00:43:40.284 : ja:11.スキキライ / HoneyWorks
00:48:45.122 : ja:12.shake it! / emon
00:52:40.023 : ja:13.Weekender Girl / kz(livetune) × 八王子P
00:56:14.037 : ja:14.FREELY TOMORROW / Mitchie M
01:00:25.622 : ja:15.Last Night, Good Night(Re:Dial) / livetune
01:07:34.049 : ja:16.Leia / ゆよゆっぺ
01:11:59.315 : ja:17.東京テディベア / Neru
01:15:17.846 : ja:18.アンハッピーリフレイン / wowaka
01:19:21.423 : ja:19.glow / keeno
01:24:16.718 : ja:20.Tell Your World / livetune
01:28:44.652 : ja:21.39 / sasakure.UK × DECO*27
01:32:55.236 : ja:22.ODDS & ENDS / ryo(supercell)
01:39:51.318 : ja:Encore
01:41:05.826 : ja:23.1/6 -out of the gravity- / ぼーかりおどP(noa)
01:45:59.019 : ja:メンバー绍介
01:47:22.602 : ja:24.ゆめゆめ / DECO*27
01:51:59.779 : ja:ENDING
01:53:09.582 : ja:ED ハジメテノオト

预览

【演唱会】【已更新】【8bit】初音未来 Magical Mirai 2013 魔法未来横滨演唱会 1080P

在线播放【支持手机端】

974256/?zw

点击播放B站地址

下载

访问密码1: naip

百度云下载百度云下载

总评分 【20】 平均评分 【5.00】 评价人数 【4

4 votes, average: 5.00 out of 54 votes, average: 5.00 out of 54 votes, average: 5.00 out of 54 votes, average: 5.00 out of 54 votes, average: 5.00 out of 5
Loading...

打赏积分给作者


失效了? or 是禁转? 请通知 or分享 (0)

您必须 登录 才能发表评论!