来自黑暗势力的报复真是太可怕了~~, 让服务姬连续高x到不省人事, 已启动魔法 圣光之守护, 如果有误伤 请见谅, 如果一天内反复被误伤 请按照提示通知社长

【演唱会】【已更新】【8bit】初音未来 Magical Mirai 2014 大阪魔法演唱会 1080P

> 演唱会 >
1444 点击 14 评论 35 总评分
欢迎关注微博:weibo.com/OmoineMie

【演唱会】【已更新】【8bit】初音未来 Magical Mirai 2014 大阪魔法演唱会 1080P

描述

20160904043636

由于社长上传的都是10bit的,8bit版本的码率有很低,电脑播放都很占资源,手机更放不出来,硬解根本不了,软解卡成XIANG。没办法,只有自己转码,源文件是VMOE的1080p@60fps AVC 10bit 内嵌特效字幕版,无赖电脑渣,怎么转都不行,转得速度快,那视频就像全屏马赛克一样,质量好一点得话,转码时间又非常长,要20几个小时,估计电脑要爆炸了。于是换一个途径,云端转码,但是费用又很贵,花了不少银子,终于转完了,可用手机播放,如果大家喜欢,就请打赏一下,谢谢。

【种子链接】

注:请用迅雷会员下载,因为文件保存在迅雷的离线服务器上,只有会员才能够下载。

[Vmoe]Hatsune Miku「Magical Mirai 2014」in OSAKA[BDrip][1920x1080p][8bit][AVC_YUV420_60fps_2Audio_DTS-HD 5.1ch&FLAC 2.0ch_Chapter][Effect Subtitles]

http://bbs.3dmgame.com/thread-5284629-1-1.html

(出处: 3DMGAME论坛)

【文件信息】

General
Unique ID : 214181928340774467217698466163498145306 (0xA121F05DF756808EAA08FF775293D61A)
Complete name : E:迅雷下载[Vmoe]Hatsune Miku「Magical Mirai 2014」[1080p][8bit][AVC_YUV420_60fps_2Audio_DTS-HD 5.1ch&PCM 2.0ch_Chapter][Effect Subtitles].mkv
Format : Matroska
Format version : Version 4 / Version 2
File size : 16.4 GiB
Duration : 1 h 55 min
Overall bit rate : 20.4 Mb/s
Encoded date : UTC 2016-11-20 07:10:24
Writing application : mkvmerge v9.5.0 (‘Quiet Fire’) 64bit
Writing library : libebml v1.3.4 + libmatroska v1.4.5

Video
ID : 1
Format : AVC
Format/Info : Advanced Video Codec
Format profile : High@L4.2
Format settings, CABAC : Yes
Format settings, ReFrames : 4 frames
Codec ID : V_MPEG4/ISO/AVC
Duration : 1 h 55 min
Bit rate : 13.0 Mb/s
Width : 1 920 pixels
Height : 1 080 pixels
Display aspect ratio : 16:9
Frame rate mode : Constant
Frame rate : 60.000 FPS
Color space : YUV
Chroma subsampling : 4:2:0
Bit depth : 8 bits
Scan type : Progressive
Bits/(Pixel*Frame) : 0.104
Stream size : 10.4 GiB (64%)
Language : Japanese
Default : Yes
Forced : No

Audio #1
ID : 2
Format : DTS
Format/Info : Digital Theater Systems
Format profile : MA / Core
Mode : 16
Format settings, Endianness : Big
Codec ID : A_DTS
Duration : 1 h 55 min
Bit rate mode : Variable / Constant
Bit rate : 5 133 kb/s / 1 509 kb/s
Channel(s) : 6 channels
Channel positions : Front: L C R, Side: L R, LFE
Sampling rate : 48.0 kHz
Frame rate : 93.750 FPS (512 spf)
Bit depth : 24 bits
Compression mode : Lossless / Lossy
Stream size : 4.13 GiB (25%)
Title : 5.1ch DTS-HD
Language : Japanese
Default : Yes
Forced : No

Audio #2
ID : 3
Format : PCM
Codec ID : A_PCM/INT/LIT
Duration : 1 h 55 min
Bit rate mode : Constant
Bit rate : 2 304 kb/s
Channel(s) : 2 channels
Sampling rate : 48.0 kHz
Frame rate : 32.000 FPS (1500 spf)
Bit depth : 24 bits
Stream size : 1.86 GiB (11%)
Language : Japanese
Default : No
Forced : No

Menu
00:00:00.000 : en:OPENING: High-energy Particle / EVALA
00:01:52.779 : en:01.カゲロウデイズ / じん
00:05:50.684 : en:02.二次元ドリームフィーバー / PolyphonicBranch
00:09:02.108 : en:03.心臓デモクラシー / みきとP
00:12:57.343 : en:MC1
00:13:32.945 : en:04.ありふれたせかいせいふく / ピノキオP
00:16:56.883 : en:05.スキキライ / HoneyWorks
00:22:20.539 : en:06.からくりピエロ / 40mp
00:25:39.538 : en:07.Weekender Girl / kz(livetune) × 八王子P
00:29:12.751 : en:08.FREELY TOMORROW / Mitchie M
00:33:18.496 : en:09.深海少女 / ゆうゆ
00:37:33.918 : en:10.ピアノ×フォルテ×スキャンダル / OSTER project
00:41:31.322 : en:11.erase or zero / クリスタルP
00:45:38.469 : en:12.glow / keeno
00:50:33.864 : en:13.Hello, Worker / KEI
00:54:35.906 : en:14.アカツキアライヴァル / Last Note
00:58:02.079 : en:15.ワンダーランドと羊の歌 / ハチ
01:03:07.784 : en:16.Tell Your World / livetune
01:07:49.699 : en:17.東京テディベア / Neru
01:11:06.762 : en:18.Last Night, Good Night(Re:Dialed) / livetune
01:18:15.691 : en:19.キャットフード / doriko
01:23:28.003 : en:MC2
01:23:37.079 : en:20.EARTH DAY / はりーP
01:27:18.400 : en:21.ゆめゆめ / DECO*27
01:31:03.625 : en:22.ODDS&ENDS / ryo(supercell)
01:38:54.328 : en:23.Sweet Devil / 八王子P
01:43:26.600 : en:24.shake it! / emon
01:47:21.935 : en:メンバー绍介
01:48:25.699 : en:25.39 / sasakure.UK × DECO*27
01:53:09.383 : en:ENDING: ネクストネスト / さつき が てんこもり

预览

【演唱会】【已更新】【8bit】初音未来 Magical Mirai 2014 大阪魔法演唱会 1080P

在线播放【支持手机端】

2095889

点击播放B站地址

下载

访问密码1: 9l9m

百度云百度云

总评分 【35】 平均评分 【5.00】 评价人数 【7

7 votes, average: 5.00 out of 57 votes, average: 5.00 out of 57 votes, average: 5.00 out of 57 votes, average: 5.00 out of 57 votes, average: 5.00 out of 5
Loading...

打赏积分给作者


失效了? or 是禁转? 请通知 or分享 (0)
只有 登录/注册 后才能发表评论
14 条精彩评论。
  1. 洛阳铲(〜 ̄△ ̄)〜
    2016-12-08 00:05 Google Chrome 40.0.2214.89Android 4.4.4
  2. 带走咯带走咯!
    2016-12-03 20:46 Google Chrome 49.0.2623.22Windows 7 x64
  3. ygrjh Lv2
    [Vmoe]Hatsune Miku「Magical Mirai 2014」in OSAKA[BDrip][1920x1080p][8bit][AVC_YUV420_60fps_2Audio_DTS-HD 5.1ch&FLAC 2.0ch_Chapter][Effect Subtitles].mkv: CRC校验错误,文件被破坏. 这怎么办呢!好不容易下的 结果...........
    2016-11-06 22:48 Google Chrome 50.0.2661.102Windows 10 x64
  4. 中囯船长
    沉入悲伤之海的我 就连想睁开眼也彷佛永劫 会就此堕坠到任何地方 谁也找不到吗? - 初音
    2016-11-04 00:24 Google Chrome 49.0.2623.87Windows 7 x64
  5. [Vmoe]Hatsune Miku「Magical Mirai 2014」in OSAKA[BDrip][1920x1080p][8bit][AVC_YUV420_60fps_2Audio_DTS-HD 5.1ch&FLAC 2.0ch_Chapter][Effect Subtitles].mkv: CRC校验错误,文件被破坏. 这怎么办呢!好不容易下的 结果...........
    2016-10-31 00:51 Google Chrome 42.0.2311.154Windows 7 x64
    • hoyten Lv4
      _(:3」∠)_我也遇到同样情况~请问你解决了吗?
      2016-11-01 14:27 Google Chrome 53.0.2785.143Windows 7 x64
    • Omoine Mie
      你是用百度云下载的还是迅雷
      2016-11-02 18:39 Google Chrome 50.0.2661.102Windows 10 x64
      • 百度云
        2016-11-05 17:53 Google Chrome 49.0.2623.75Windows 7 x64
  6. God9 Lv4
    必须支持
    2016-10-15 14:57 Google Chrome 47.0.2526.80Windows XP
  7. 必须支持
    2016-09-18 00:07 Internet Explorer 11.0Windows 10 x64
  8. Omoine Mie
    明天补档
    2016-09-17 22:16 Google Chrome 50.0.2661.102Windows 10 x64
  9. 老物支持
    2016-09-12 11:28 Opera 39.0.2256.48Windows 10 x64
  10. love Lv9
    演唱会必须支持
    2016-09-06 01:43 Google Chrome 18.0.966.0Windows 7 x64