你知道吗? 手机也可以访问初音社哦!~ | 点击顶部个人头像可以修改个人头像,密码,邮件等信息哦~

【演唱会】NicoNico超议会2016 超パーティー2016 V家 vocaloid部分抢鲜版

演唱会 1714 点击 17 评论 75 总评分

【演唱会】NicoNico超议会2016 超パーティー2016 V家 vocaloid部分抢鲜版

描述

属于抢鲜版,分辨率不高,等待更新吧。

视频版权归N站所有,请不要上传到其它视频网站。

【视频信息】

General
Complete name : ニコニコ超パーティー2016 VOCALOIDライブ.mp4
Format : MPEG-4
Format profile : Base Media
Codec ID : isom (isom/iso2/avc1/mp41)
File size : 304 MiB
Duration : 38 min 59 s
Overall bit rate : 1 089 kb/s
Writing application : Lavf55.49.100

Video
ID : 1
Format : AVC
Format/Info : Advanced Video Codec
Format profile : [email protected]
Format settings, CABAC : Yes
Format settings, ReFrames : 3 frames
Codec ID : avc1
Codec ID/Info : Advanced Video Coding
Duration : 38 min 59 s
Bit rate : 953 kb/s
Width : 854 pixels
Height : 480 pixels
Display aspect ratio : 16:9
Frame rate mode : Constant
Frame rate : 29.970 (30000/1001) FPS
Color space : YUV
Chroma subsampling : 4:2:0
Bit depth : 8 bits
Scan type : Progressive
Bits/(Pixel*Frame) : 0.078
Stream size : 266 MiB (87%)

Audio
ID : 2
Format : AAC
Format/Info : Advanced Audio Codec
Format profile : LC
Codec ID : 40
Duration : 38 min 59 s
Bit rate mode : Constant
Bit rate : 128 kb/s
Channel(s) : 2 channels
Channel positions : Front: L R
Sampling rate : 48.0 kHz
Frame rate : 46.875 FPS (1024 spf)
Compression mode : Lossy
Stream size : 35.8 MiB (12%)
Language : English
Default : Yes
Alternate group : 1

预览

【演唱会】NicoNico超议会2016 超パーティー2016 V家 vocaloid部分抢鲜版

下载

访问密码1: u9ff

百度云下载

总评分 【75】 平均评分 【5.00】 评价人数 【15

15 votes, average: 5.00 out of 515 votes, average: 5.00 out of 515 votes, average: 5.00 out of 515 votes, average: 5.00 out of 515 votes, average: 5.00 out of 5
Loading...

打赏积分给作者


失效了? or 是禁转? 请通知 or分享 (0)

您必须 登录 才能发表评论!

17 条精彩评论。
  1. Arasia
    感谢分享
    2017-01-10 10:44 Google Chrome 49.0.2623.22Windows 10 x64
  2. 感谢分享
    2017-01-09 11:33 Google Chrome 55.0.2883.87Windows 8 x64
  3. 黑海
    感谢分享
    2016-12-31 11:01 Google Chrome 45.0.2454.101Windows 10 x64
  4. 感谢分享(`・ω・´)
    2016-12-12 10:20 Google Chrome 51.0.2704.79 NOKIA
  5. 期待很久了 感谢楼主~
    2016-12-10 22:06 Google Chrome 49.0.2623.22Windows 7
  6. ε=ε=(ノ≧∇≦)ノ很好 O(∩_∩)O谢谢分享
    2016-12-08 00:07 Google Chrome 52.0.2743.116Windows 7 x64
  7. 没有中文字幕么?(=・ω・=)
    2016-12-02 12:10 Google Chrome 45.0.2454.101Windows XP
  8. 七泪
    阿里嘎多
    2016-11-27 13:40 Google Chrome 47.0.2526.108Windows 7
  9. 感谢楼主
    2016-11-24 00:24 Google Chrome 40.0.2214.117Android 5.1
  10. 源主
    终于有了 感谢分享(=・ω・=)
    2016-11-22 21:15 Google Chrome 45.0.2454.101Windows 7 x64
    • 源主
      果然抢先版 音质画质已不想吐槽Σ(  ̄□ ̄||)
      2016-11-22 21:55 Google Chrome 45.0.2454.101Windows 7 x64
  11. 落雨
    感谢分享
    2016-11-19 22:31 Google Chrome 45.0.2454.101Windows 10 x64
  12. 感谢分享
    2016-11-19 10:57 Google Chrome 49.0.2623.22Windows 10 x64
  13. 谢谢分享(=・ω・=)
    2016-11-19 07:30 Google Chrome 50.0.2661.102Windows 10 x64
  14. hours
    揣兜里等更新
    2016-11-19 00:56 Firefox 49.0Windows 7 x64
  15. 四散的尘埃
    2016-11-19 00:21 Google Chrome 18.0.966.0Windows 7 x64
  16. hitloler
    好评
    2016-11-18 20:03 Google Chrome 47.0.2526.106Windows 7 x64